<?xml version="1.0" standalone="no"?>
<!DOCTYPE svg PUBLIC "-//W3C//DTD SVG 1.1//EN" "http://www.w3.org/Graphics/SVG/1.1/DTD/svg11.dtd" >
<svg xmlns="http://www.w3.org/2000/svg">
<metadata>
This is a custom SVG webfont generated by Font Squirrel.
Copyright   : 2006 Xavier Dupre published by FSI Fonts und Software GmbH
</metadata>
<defs>
<font id="webfontZgmfH4JQ" horiz-adv-x="1062" >
<font-face units-per-em="2048" ascent="1638" descent="-410" />
<missing-glyph horiz-adv-x="421" />
<glyph unicode=" "  horiz-adv-x="421" />
<glyph unicode="&#x09;" horiz-adv-x="421" />
<glyph unicode="&#xa0;" horiz-adv-x="421" />
<glyph unicode="!" horiz-adv-x="620" d="M401 963l-20 -498h-141l-21 498v538h182v-538zM430 104.5q0 -55.5 -31.5 -86t-89.5 -30.5q-55 0 -87 30.5t-32 85.5q0 53 33 83t88 30q53 0 86 -28.5t33 -84z" />
<glyph unicode="&#x22;" horiz-adv-x="800" d="M326 1501l-21 -536h-160l-20 536h201zM676 1501l-19 -536h-159l-23 536h201z" />
<glyph unicode="#" horiz-adv-x="1173" d="M1098 1073l-33 -174h-188l-74 -418h186l-33 -176h-186l-53 -305h-123l53 305h-252l-53 -305h-123l53 305h-196l33 176h196l74 418h-195l33 174h193l51 281h123l-49 -281h249l50 281h124l-51 -281h191zM754 899h-250l-76 -418h250z" />
<glyph unicode="$" horiz-adv-x="1173" d="M1036 438q0 -168 -103.5 -268t-273.5 -119v-125h-174v121q-160 8 -338 72l46 166q242 -78 409 -78q113 0 176.5 57.5t63.5 161.5q0 80 -43 127t-137 82l-228 84q-160 57 -228.5 139t-68.5 209q0 160 101.5 263.5t267.5 121.5v121h176v-119q123 -4 285 -43l-35 -166 q-211 51 -350 51q-117 0 -184.5 -54t-67.5 -165q0 -70 43 -112.5t143 -79.5l225 -84q147 -55 221 -140.5t74 -222.5z" />
<glyph unicode="%" horiz-adv-x="1761" d="M1212 1354l-536 -1354h-127l538 1354h125zM729 964.5q0 -409.5 -311 -409.5q-309 0 -309 409.5t311 409.5q309 0 309 -409.5zM575 965q0 162 -34.5 226t-120.5 64q-84 0 -121 -61t-37 -229t36 -229.5t120 -61.5t120.5 61.5t36.5 229.5zM1651 389.5 q0 -409.5 -309.5 -409.5t-309.5 409.5t311 409.5q308 0 308 -409.5zM1499 389q0 162 -36 226.5t-122 64.5q-84 0 -120.5 -61.5t-36.5 -229.5q0 -166 36.5 -228.5t120.5 -62.5q82 0 120 62.5t38 228.5z" />
<glyph unicode="&#x26;" horiz-adv-x="1353" d="M1354 12v-12h-221l-162 188q-119 -121 -208 -164.5t-224 -43.5q-473 0 -473 409q0 182 68.5 279.5t279.5 187.5q-78 98 -109 169t-31 153q0 170 101.5 257t279.5 87q160 0 254.5 -82t94.5 -242q0 -121 -71 -211t-249 -180l307 -356l303 307v-244l-192 -203zM539 147 q86 0 153.5 34t167.5 145l-350 409q-156 -68 -205 -132t-49 -208q0 -248 283 -248zM829 1194q0 98 -46 140t-134 42q-195 0 -194 -192q0 -63 26.5 -113.5t104.5 -142.5q129 55 186 117.5t57 148.5z" />
<glyph unicode="'" horiz-adv-x="452" d="M328 1501l-21 -536h-162l-20 536h203z" />
<glyph unicode="(" horiz-adv-x="706" d="M623 -285h-172q-301 399 -301 891t301 895h172q-291 -412 -291 -895q0 -475 291 -891z" />
<glyph unicode=")" horiz-adv-x="706" d="M557 610q0 -492 -301 -895h-172q291 412 291 895q0 475 -291 891h172q301 -404 301 -891z" />
<glyph unicode="*" horiz-adv-x="874" d="M788 1307l50 -150l-293 -84l192 -233l-131 -97l-168 250l-168 -250l-133 97l193 233l-293 84l49 150l283 -105l-13 299h162l-10 -299z" />
<glyph unicode="+" d="M969 463h-357v-426h-163v426h-357v162h357v426h163v-426h357v-162z" />
<glyph unicode="," horiz-adv-x="557" d="M418 39q0 -131 -56.5 -223t-197.5 -187l-103 111q121 82 153 128t32 118v30h-25q-33 0 -54.5 25t-21.5 65q0 51 34 83t91 32q68 0 108 -45t40 -137z" />
<glyph unicode="-" horiz-adv-x="512" d="M465 467h-418v154h418v-154z" />
<glyph unicode="." horiz-adv-x="557" d="M403 104q0 -55 -33.5 -86.5t-90.5 -31.5q-55 0 -90 31.5t-35 87t33.5 87t91.5 31.5q55 0 89.5 -31t34.5 -88z" />
<glyph unicode="/" horiz-adv-x="679" d="M764 1501l-637 -1786h-164l637 1786h164z" />
<glyph unicode="0" horiz-adv-x="1247" d="M1104 678q0 -698 -481 -698q-229 0 -354.5 158.5t-125.5 539.5q0 696 482 696q229 0 354 -158.5t125 -537.5zM909 678q0 299 -67.5 417.5t-216.5 118.5q-145 0 -216 -115.5t-71 -420.5q0 -209 35 -330t94 -165t156 -44q94 0 154.5 43t96 165t35.5 331z" />
<glyph unicode="1" horiz-adv-x="837" d="M594 0h-182v1186l-301 -76l-21 164l332 80h172v-1354z" />
<glyph unicode="2" horiz-adv-x="1157" d="M1008 0h-875v168q379 293 506 447.5t127 316.5q0 129 -77 198.5t-218 69.5q-127 0 -303 -59l-29 176q178 57 348 57q229 0 355.5 -109.5t126.5 -320.5q0 -174 -116 -334.5t-447 -425.5v-12h591z" />
<glyph unicode="3" horiz-adv-x="1157" d="M989 252q0 -197 -132 -308.5t-357 -111.5q-193 0 -400 59l31 177q201 -63 379 -64q281 0 281 258q0 133 -72 196.5t-221 63.5h-240v166h250q276 0 276 266q0 248 -266 248q-170 0 -348 -59l-27 170q197 61 392 61q207 0 326.5 -98t119.5 -301q0 -272 -254 -354v-15 q127 -29 194.5 -119t67.5 -235z" />
<glyph unicode="4" horiz-adv-x="1142" d="M1073 195h-182v-342h-182v342h-631v204q219 346 324.5 552t154.5 403h193q-55 -203 -170 -432.5t-336 -569.5h469l43 426h135v-418h182v-165z" />
<glyph unicode="5" horiz-adv-x="1163" d="M1028 291q0 -221 -132 -340t-388 -119q-182 0 -358 57l30 177q184 -63 330 -64q170 0 244.5 72.5t74.5 220.5q0 129 -78.5 193.5t-254.5 64.5q-170 0 -299 -10v811h784l-18 -172h-584v-480h141q250 0 379 -106t129 -305z" />
<glyph unicode="6" horiz-adv-x="1173" d="M1038 475q0 -240 -118.5 -367.5t-327.5 -127.5q-152 0 -249 58t-153.5 209.5t-56.5 407.5q0 465 137.5 666t415.5 201q125 0 322 -52l-35 -178q-190 59 -287 60q-182 0 -265 -125t-95 -402q135 86 313 86q182 0 290.5 -107.5t108.5 -328.5zM852 471q0 291 -258 291 q-143 0 -270 -78v-115q0 -242 67.5 -338t200.5 -96q260 0 260 336z" />
<glyph unicode="7" horiz-adv-x="1089" d="M1008 1161q-571 -862 -680 -1319l-195 19q129 504 676 1321h-711l-14 172h924v-193z" />
<glyph unicode="8" horiz-adv-x="1173" d="M1044 391q0 -201 -121.5 -306t-344.5 -105q-203 0 -326 95t-123 298q0 268 291 389q-131 70 -202 156t-71 221q0 180 118 281.5t323 101.5t322.5 -92.5t117.5 -278.5q0 -252 -276 -383q143 -72 217.5 -156t74.5 -221zM850 401q0 102 -66.5 166t-214.5 127 q-248 -88 -247 -303q0 -256 260 -256q268 0 268 266zM838 1130q0 236 -250 236q-252 0 -252 -238q0 -109 68.5 -174t197.5 -120q236 87 236 296z" />
<glyph unicode="9" horiz-adv-x="1173" d="M133 879q0 240 118 367.5t329 127.5q152 0 249 -58.5t153 -210t56 -407.5q0 -465 -137 -665.5t-416 -200.5q-125 0 -321 51l35 178q190 -59 286 -59q182 0 264 125t97 401q-135 -86 -314 -86q-182 0 -290.5 108t-108.5 329zM319 883q0 -291 259 -291q143 0 268 78v114 q0 242 -67.5 338.5t-200.5 96.5q-259 0 -259 -336z" />
<glyph unicode=":" horiz-adv-x="557" d="M403 954q0 -55 -33.5 -86.5t-90.5 -31.5q-55 0 -90 31.5t-35 87t33.5 87t91.5 31.5q55 0 89.5 -31t34.5 -88zM403 104q0 -55 -33.5 -86.5t-90.5 -31.5q-55 0 -90 31.5t-35 87t33.5 87t91.5 31.5q55 0 89.5 -31t34.5 -88z" />
<glyph unicode=";" horiz-adv-x="557" d="M418 39q0 -131 -56.5 -223t-197.5 -187l-103 111q121 82 153 128t32 118v30h-25q-33 0 -54.5 25t-21.5 65q0 51 34 83t91 32q68 0 108 -45t40 -137zM403 954q0 -55 -33.5 -86.5t-90.5 -31.5q-55 0 -90 31.5t-35 87t33.5 87t91.5 31.5q55 0 89.5 -31t34.5 -88z" />
<glyph unicode="&#x3c;" d="M883 0h-199l-506 545l506 542h199v-20l-486 -518l486 -529v-20z" />
<glyph unicode="=" d="M936 223h-809v160h809v-160zM936 719h-809v160h809v-160z" />
<glyph unicode="&#x3e;" d="M178 1087h199l506 -542l-506 -545h-199v20l486 521l-486 526v20z" />
<glyph unicode="?" horiz-adv-x="937" d="M836 1155q0 -162 -96.5 -256t-323.5 -156l35 -278h-152l-76 391q250 53 339 111.5t89 171.5q0 111 -64.5 160t-199.5 49q-137 0 -254 -37l-24 172q135 39 278 39q449 0 449 -367zM512 102q0 -53 -31.5 -82.5t-91.5 -29.5q-55 0 -87 29.5t-32 82.5q0 55 33 85t88 30 q53 0 87 -30t34 -85z" />
<glyph unicode="@" horiz-adv-x="1933" d="M1804 803q0 -293 -148.5 -465t-332.5 -172q-162 0 -205 110h-8q-176 -111 -283 -110q-117 0 -185.5 72.5t-68.5 220.5q0 258 119 421.5t291 163.5q123 0 240 -63l10 49h156l-111 -631q-6 -35 -6 -45q0 -63 80 -63q117 0 213 138t96 372q0 590 -625 590q-348 0 -555 -239 t-207 -650q0 -338 147.5 -505t450.5 -167q172 0 338 64l17 -136q-184 -59 -363 -59q-360 0 -547.5 201.5t-187.5 601.5q0 479 251 749.5t658 270.5q356 0 561 -182.5t205 -536.5zM1114 381l88 493q-98 49 -184 50q-113 0 -194 -130t-81 -327q0 -170 144 -170q84 0 227 84z " />
<glyph unicode="A" horiz-adv-x="1292" d="M1245 0h-213l-131 436h-516l-133 -436h-207l467 1501h272zM428 600h432l-182 598q-25 80 -25 141h-16q0 -53 -27 -141z" />
<glyph unicode="B" horiz-adv-x="1298" d="M1186 410q0 -410 -475 -410h-490v1501h432q238 0 360 -89t122 -294q0 -274 -230 -342v-14q281 -57 281 -352zM979 424q0 258 -287 258h-272v-520h270q154 0 221.5 62.5t67.5 199.5zM932 1094q0 246 -279 245h-233v-508h264q248 1 248 263z" />
<glyph unicode="C" horiz-adv-x="1208" d="M1143 72q-227 -92 -393 -92q-319 0 -464 184t-145 590q0 401 148.5 584.5t441.5 183.5q152 0 381 -70l-47 -186q-201 76 -324 75q-94 0 -159.5 -23.5t-119.5 -86t-80 -181t-26 -296.5q0 -186 27 -307t84 -182.5t122.5 -83t166.5 -21.5q119 0 342 96z" />
<glyph unicode="D" horiz-adv-x="1464" d="M1325 778q0 -778 -651 -778h-453v1501h449q150 0 263.5 -34.5t204.5 -114.5t139 -224.5t48 -349.5zM1108 774q0 168 -29.5 281.5t-91 172t-134.5 81t-175 22.5h-252v-1161h246q150 0 242 50t143 185.5t51 368.5z" />
<glyph unicode="E" horiz-adv-x="1218" d="M1090 0h-869v1501h848v-174h-643v-483h612v-172h-612v-498h647z" />
<glyph unicode="F" horiz-adv-x="1177" d="M1032 651h-606v-651h-205v1501h842v-174h-637v-502h606v-174z" />
<glyph unicode="G" horiz-adv-x="1417" d="M1217 68q-270 -88 -469 -88q-319 0 -463 186t-144 588q0 408 152.5 588t476.5 180q188 0 436 -72l-47 -188q-233 80 -379 79q-111 0 -184.5 -23.5t-130.5 -86t-83 -179t-26 -298.5q0 -233 47.5 -366.5t130 -180.5t220.5 -47q106 0 268 43v461h-295v174h490v-770z" />
<glyph unicode="H" horiz-adv-x="1505" d="M1284 0h-205v676h-651v-676h-207v1501h207v-649h651v649h205v-1501z" />
<glyph unicode="I" horiz-adv-x="649" d="M428 0h-207v1501h207v-1501z" />
<glyph unicode="J" horiz-adv-x="661" d="M440 25q-2 -190 -83 -277.5t-316 -142.5l-33 184q139 37 183.5 78t44.5 127v1507h204v-1476z" />
<glyph unicode="K" horiz-adv-x="1339" d="M1251 182l-10 -182q-49 -6 -80 -6q-80 0 -126 34.5t-95 123.5l-303 546l-211 -260v-438h-205v1501h205v-790h12q33 61 103 151l503 639h220v-12l-498 -612l346 -629q23 -41 41 -55.5t53 -14.5q20 0 45 4z" />
<glyph unicode="L" horiz-adv-x="1091" d="M1061 0h-840v1501h207v-1323h612z" />
<glyph unicode="M" horiz-adv-x="1867" d="M1690 0h-197l-59 1038q-6 129 -7 174h-12q-10 -78 -41 -174l-338 -1038h-213l-340 1038q-33 102 -41 174h-14q0 -131 -2 -174l-64 -1038h-186l100 1501h248l361 -1093q39 -115 47 -197h12q8 92 41 197l356 1093h250z" />
<glyph unicode="N" horiz-adv-x="1505" d="M1282 0h-213l-586 1055q-41 74 -69 164h-13q8 -106 9 -164v-1055h-191v1501h227l574 -1030q39 -70 70 -158h12q-6 80 -6 158v1030h186v-1501z" />
<glyph unicode="O" horiz-adv-x="1470" d="M1331 750q0 -770 -596 -770q-289 0 -441.5 182t-152.5 583q0 776 594 777q596 0 596 -772zM1116 750q0 176 -24.5 294.5t-76.5 185t-119 93.5t-161 27q-129 0 -207.5 -49.5t-125 -183.5t-46.5 -367q0 -178 26 -298t78 -184.5t117.5 -90t157.5 -25.5t157.5 24.5t118 88 t79 184.5t26.5 301z" />
<glyph unicode="P" horiz-adv-x="1288" d="M1165 1042q0 -244 -142 -355.5t-376 -111.5h-221v-575h-205v1501h451q240 0 366.5 -108.5t126.5 -350.5zM954 1044q0 162 -77.5 224.5t-210.5 62.5h-240v-586h219q143 0 226 64.5t83 234.5z" />
<glyph unicode="Q" horiz-adv-x="1470" d="M1331 750q0 -690 -502 -756v-76q0 -180 152 -180q63 0 195 45l38 -172q-170 -49 -253 -49q-328 0 -328 352v80q-492 59 -492 751q0 395 156 586t438 191q596 0 596 -772zM1116 750q0 231 -47 366t-127 184.5t-207 49.5q-195 0 -287 -129t-92 -471q0 -178 26 -297 t78 -183.5t117.5 -90t157.5 -25.5q74 0 128.5 14t104.5 53t80.5 104.5t49 172.5t18.5 252z" />
<glyph unicode="R" horiz-adv-x="1312" d="M954 1063q0 274 -272 274h-260v-567h246q139 0 212.5 75t73.5 218zM1229 184v-184q-49 -8 -86 -8q-82 0 -130 33.5t-93 124.5l-234 460h-264v-610h-201v1501h471q469 0 469 -430q0 -315 -282 -412l215 -409q23 -43 40 -56.5t54 -13.5q21 0 41 4z" />
<glyph unicode="S" horiz-adv-x="1191" d="M1069 408q0 -209 -133 -318.5t-348 -109.5q-190 0 -445 79l52 181q182 -53 257.5 -67.5t155.5 -14.5q125 0 190.5 61.5t65.5 175.5q0 86 -43 136.5t-141 89.5l-240 96q-158 61 -231.5 151t-73.5 228q0 195 134 310.5t356 115.5q160 0 374 -52l-43 -180q-225 53 -348 53 q-266 0 -266 -237q0 -78 41 -125t143 -86l240 -92q152 -59 227.5 -152t75.5 -243z" />
<glyph unicode="T" horiz-adv-x="1118" d="M1040 1327h-378v-1327h-207v1327h-377v174h962v-174z" />
<glyph unicode="U" horiz-adv-x="1486" d="M1274 510q0 -276 -136.5 -403t-398.5 -127t-395 120.5t-133 409.5v991h205v-991q0 -193 70.5 -272.5t254.5 -79.5q178 0 256 80.5t78 271.5v991h199v-991z" />
<glyph unicode="V" horiz-adv-x="1310" d="M1247 1501l-469 -1501h-246l-469 1501h213l351 -1149q25 -80 24 -155h15q0 76 24 155l350 1149h207z" />
<glyph unicode="W" horiz-adv-x="2019" d="M1890 1501l-317 -1501h-223l-297 993q-33 119 -37 197h-15q-4 -78 -36 -197l-297 -993h-222l-319 1501h205l213 -1052q27 -123 26 -218h15q2 74 43 218l274 954h219l281 -954q33 -113 37 -218h14q0 74 29 218l215 1052h192z" />
<glyph unicode="X" horiz-adv-x="1271" d="M1192 0h-225l-287 512q-45 80 -51 125h-13q-4 -35 -53 -123l-289 -514h-211l433 760l-422 741h227l268 -483q47 -86 54 -123h14q6 29 61 125l275 481h213l-428 -739z" />
<glyph unicode="Y" horiz-adv-x="1103" d="M1077 1501l-424 -905v-596h-204v598l-424 903h215l268 -573q37 -82 41 -137h12q8 59 43 137l262 573h211z" />
<glyph unicode="Z" horiz-adv-x="1193" d="M1085 0h-979v199l762 1128h-696l-20 174h927v-198l-764 -1129h756z" />
<glyph unicode="[" horiz-adv-x="706" d="M643 -285h-424v1786h424l-16 -151h-217v-1483h217z" />
<glyph unicode="\" horiz-adv-x="727" d="M764 -285h-164l-637 1786h164z" />
<glyph unicode="]" horiz-adv-x="706" d="M63 1501h424v-1786h-424l17 152h217v1483h-217z" />
<glyph unicode="^" d="M891 956h-164l-199 478l-196 -478h-160v19l231 526h256l232 -526v-19z" />
<glyph unicode="_" horiz-adv-x="1024" d="M958 -289h-892v154h892v-154z" />
<glyph unicode="`" horiz-adv-x="1024" d="M719 1192h-162l-254 309h221l195 -291v-18z" />
<glyph unicode="a" horiz-adv-x="1118" d="M913 0h-155l-10 80h-15q-205 -100 -330 -100q-279 0 -278 286q0 266 285 297l329 37v250q0 94 -112 94q-156 0 -396 -74l-36 160q266 78 454 78q137 0 200.5 -52t63.5 -184v-872zM739 188v285l-381 -39q-53 -59 -53 -153q0 -86 38 -123t130 -37q88 -1 266 67z" />
<glyph unicode="b" horiz-adv-x="1212" d="M1083 555q0 -289 -115.5 -432t-310.5 -143q-135 0 -274 55l-10 -35h-168v1567l182 26v-589h12q186 104 310 104q184 0 279 -127t95 -426zM889 559q0 215 -54.5 302t-172.5 87q-98 0 -275 -92v-680q121 -43 229 -43q137 0 205 96.5t68 329.5z" />
<glyph unicode="c" horiz-adv-x="950" d="M854 41q-188 -61 -295 -61q-215 0 -322.5 137t-107.5 428q0 563 430 563q113 0 275 -37l-35 -168q-131 41 -221 41q-139 0 -196.5 -89t-57.5 -308q0 -229 59 -316.5t192 -87.5q78 0 244 66z" />
<glyph unicode="d" horiz-adv-x="1214" d="M1010 0h-174v88h-15q-188 -109 -313 -108q-86 0 -150.5 24.5t-118 82.5t-82 170t-28.5 273q0 309 122 443.5t314 134.5q117 0 262 -51v510l183 26v-1593zM827 229v686q-123 39 -227 39q-59 0 -104 -16t-86 -60t-62.5 -132.5t-21.5 -217.5q0 -227 57 -308t172 -81 q96 0 272 90z" />
<glyph unicode="e" horiz-adv-x="1087" d="M934 51q-242 -72 -348 -71q-233 0 -345 133t-112 405q0 590 442 590q184 0 285.5 -104.5t101.5 -313.5l-6 -176q-410 -8 -630 -14q0 -203 61 -280t203 -77q94 0 315 70zM778 631q2 37 2 88q0 254 -213 254q-119 0 -179 -79t-64 -271z" />
<glyph unicode="f" horiz-adv-x="825" d="M739 1581l-12 -166q-51 10 -102 10q-82 0 -120 -35.5t-38 -123.5v-179h274v-159h-274v-928h-182v928h-154v159h154v136q0 178 88 274t254 96q65 0 112 -12z" />
<glyph unicode="g" horiz-adv-x="1124" d="M1047 -86q0 -164 -138.5 -274.5t-382.5 -110.5q-389 0 -389 256q0 131 121 254v14q-80 23 -80 94q0 80 78 322q-115 94 -115 281q0 168 100.5 263t286.5 95q80 0 166 -21h338q-18 -96 -22 -133h-162v-14q76 -70 76 -207q0 -336 -396 -336q-90 0 -147 19 q-45 -135 -45 -180q0 -29 9 -36t54 -10l369 -12q139 -4 209 -62.5t70 -201.5zM879 -100q0 72 -32 93t-114 25l-354 13q-78 -104 -78 -201q0 -82 55.5 -117t188.5 -35q154 0 244 56.5t90 165.5zM748 750q0 123 -53.5 173t-166.5 50q-111 0 -162 -52.5t-51 -170.5 q0 -123 50.5 -170.5t162.5 -47.5q119 0 169.5 52.5t50.5 165.5z" />
<glyph unicode="h" horiz-adv-x="1236" d="M1036 0h-182v817q0 68 -26.5 94.5t-108.5 26.5q-154 0 -332 -86v-852h-182v1567l182 26v-600h14q143 72 223.5 93.5t159.5 21.5q125 0 188.5 -57.5t63.5 -184.5v-866z" />
<glyph unicode="i" horiz-adv-x="591" d="M387 0h-182v1087h182v-1087zM412 1421.5q0 -53.5 -31 -83t-84 -29.5t-85 29.5t-32 82.5q0 51 32 81t85 30q51 0 83 -28.5t32 -82z" />
<glyph unicode="j" horiz-adv-x="593" d="M389 -158q0 -143 -65.5 -212.5t-231.5 -102.5l-41 172q98 14 127 39.5t29 83.5v1265h182v-1245zM412 1421.5q0 -53.5 -31 -83t-84 -29.5t-85 29.5t-32 82.5q0 51 32 81t85 30q51 0 83 -28.5t32 -82z" />
<glyph unicode="k" horiz-adv-x="1107" d="M1028 0q-29 -4 -63 -4q-70 0 -110 27.5t-79 97.5l-227 403l-166 -186v-338h-178v1567l178 26v-1034h12q33 76 97 143l352 390l196 -11l-372 -417l247 -437q18 -33 33 -44t39 -11q20 0 41 4v-176z" />
<glyph unicode="l" horiz-adv-x="591" d="M387 0h-182v1567l182 26v-1593z" />
<glyph unicode="m" horiz-adv-x="1794" d="M1593 0h-182v817q0 68 -25.5 94.5t-103.5 26.5q-113 0 -293 -86v-852h-182v817q0 68 -25.5 94.5t-93.5 26.5q-129 0 -301 -86v-852h-182v1087h182v-94h14q141 70 220 92.5t155 22.5q78 0 124 -25.5t67 -93.5h14q211 119 369 119q123 0 183 -58.5t60 -185.5v-864z" />
<glyph unicode="n" horiz-adv-x="1236" d="M1036 0h-182v817q0 68 -26.5 94.5t-108.5 26.5q-158 0 -332 -86v-852h-182v1087h182v-94h14q145 70 221 92.5t162 22.5q123 0 187.5 -55.5t64.5 -186.5v-866z" />
<glyph unicode="o" horiz-adv-x="1187" d="M1059 543q0 -563 -465 -563t-465 563q0 565 467 565q463 0 463 -565zM864 543q0 242 -67.5 327.5t-202.5 85.5q-137 0 -203.5 -88t-66.5 -325q0 -233 64.5 -322.5t205.5 -89.5q139 0 204.5 88t65.5 324z" />
<glyph unicode="p" horiz-adv-x="1212" d="M1083 555q0 -295 -118.5 -435t-307.5 -140q-139 0 -270 51v-482h-182v1538h182v-83h12q186 104 310 104q186 0 280 -127t94 -426zM889 559q0 221 -56.5 305t-170.5 84q-96 0 -275 -92v-684q125 -39 229 -39q129 0 201 92t72 334z" />
<glyph unicode="q" horiz-adv-x="1214" d="M827 229v680q-117 45 -227 45q-131 0 -202.5 -91t-71.5 -335q0 -123 17 -202.5t51 -118.5t71 -53.5t90 -14.5q92 0 272 90zM1010 -451h-183v535h-14q-182 -104 -305 -104q-188 0 -283.5 126.5t-95.5 423.5q0 295 116.5 436.5t317.5 141.5q121 0 266 -57l11 36h170v-1538z " />
<glyph unicode="r" horiz-adv-x="796" d="M727 1098l-22 -191q-47 14 -76 15q-59 0 -108.5 -20.5t-133.5 -78.5v-823h-182v1087h182v-114h12q102 82 155.5 108.5t107.5 26.5q20 0 65 -10z" />
<glyph unicode="s" horiz-adv-x="958" d="M842 305q0 -158 -101.5 -241.5t-273.5 -83.5q-125 0 -342 59l37 158q231 -63 321 -64q180 0 181 148q0 66 -35 101.5t-133 72.5l-166 63q-193 70 -193 248q0 162 106.5 252t276.5 90q117 0 285 -31l-33 -162q-186 39 -266 39q-86 0 -138.5 -40t-52.5 -123q0 -57 30 -84 t134 -68l170 -66q193 -73 193 -268z" />
<glyph unicode="t" horiz-adv-x="913" d="M811 66q-211 -86 -317 -86q-111 0 -161 55t-50 178v715h-152v159h152v238l182 35v-273h315v-159h-315v-713q0 -63 63 -63q70 0 248 75z" />
<glyph unicode="u" horiz-adv-x="1230" d="M1026 0h-174v94h-12q-231 -115 -383 -114q-254 0 -254 243v864h182v-819q0 -68 26.5 -94.5t108.5 -26.5q160 0 324 89v851h182v-1087z" />
<glyph unicode="v" horiz-adv-x="1050" d="M977 1087l-348 -1087h-209l-346 1087h186l238 -761q27 -88 26 -144h13q0 59 26 144l234 761h180z" />
<glyph unicode="w" horiz-adv-x="1624" d="M1528 1087l-262 -1087h-193l-231 739q-29 90 -29 127h-12q0 -43 -27 -127l-229 -739h-191l-260 1087h185l163 -741q18 -86 19 -133h12q2 47 29 133l215 696h194l215 -696q31 -96 31 -133h12q0 45 21 133l168 741h170z" />
<glyph unicode="x" d="M780 0l-192 344q-39 66 -56 113h-10q-8 -31 -55 -113l-203 -344h-194l333 559l-325 528h205l188 -313q49 -84 59 -125h11q14 45 65 127l189 311h188l-326 -530l334 -557h-211z" />
<glyph unicode="y" d="M985 1087l-307 -1099q-68 -242 -162 -350.5t-233 -108.5q-74 0 -234 53l47 154q117 -47 201 -47q49 0 85 34.5t69 133.5l47 143h-56l-368 1087h188l266 -788q27 -84 27 -133h12q0 49 23 131l215 790h180z" />
<glyph unicode="z" horiz-adv-x="1046" d="M913 0h-798v172l596 762h-531l-12 153h747v-172l-598 -761h576z" />
<glyph unicode="{" horiz-adv-x="706" d="M604 -133v-152h-135q-330 0 -330 238q0 66 40 135.5t87 119.5t87 109.5t40 106.5q0 59 -39 82.5t-127 23.5h-100v156h100q90 0 128 24.5t38 82.5q0 47 -40 106t-87 109.5t-87 119t-40 134.5q0 240 330 239h135v-151h-139q-84 0 -113.5 -25t-29.5 -80q0 -39 39.5 -94 t87 -104.5t87 -117t39.5 -128.5q0 -164 -202 -187v-12q203 -23 202 -186q0 -59 -39.5 -127t-87 -117t-87 -105.5t-39.5 -95.5q0 -55 29.5 -79.5t113.5 -24.5h139z" />
<glyph unicode="|" horiz-adv-x="561" d="M356 -451h-151v2024h151v-2024z" />
<glyph unicode="}" horiz-adv-x="706" d="M102 1350v151h136q330 0 329 -237q0 -66 -40 -135.5t-87 -120t-87 -109.5t-40 -106q0 -59 38 -83t128 -24h101v-156h-101q-90 0 -128 -24.5t-38 -81.5q0 -47 40 -106.5t87 -109.5t87 -119t40 -134q0 -240 -329 -240h-136v152h140q84 0 113.5 24.5t29.5 79.5 q0 39 -40 94.5t-87 104.5t-87 116.5t-40 129.5q0 164 203 186v12q-203 23 -203 187q0 59 40 126.5t87 117t87 105.5t40 95q0 55 -29.5 80t-113.5 25h-140z" />
<glyph unicode="~" d="M938 705v-170q-109 -102 -221 -103q-70 0 -188.5 57.5t-178.5 57.5q-117 0 -227 -109v170q98 96 227 97q70 0 188.5 -57.5t178.5 -57.5q61 0 108 27t113 88z" />
<glyph unicode="&#xa1;" horiz-adv-x="620" d="M219 125l21 498h141l20 -498v-539h-182v539zM190 983q0 55 32 86t89 31q55 0 87 -31t32 -86q0 -53 -32.5 -83t-88.5 -30q-53 0 -86 29t-33 84z" />
<glyph unicode="&#xa2;" horiz-adv-x="1173" d="M954 1130l-32 -165q-143 43 -267 43q-141 0 -210.5 -94.5t-69.5 -305.5q0 -236 67.5 -319.5t204.5 -83.5q125 0 293 61l35 -162q-133 -45 -238 -57v-121h-182v119q-193 20 -284 155.5t-91 405.5q0 260 99.5 396.5t275.5 160.5v121h182v-119q106 -10 217 -35z" />
<glyph unicode="&#xa3;" horiz-adv-x="1173" d="M1083 0h-942v147l236 23q0 49 -10.5 117.5t-21.5 115.5l-36 148q-25 100 -33 139h-135v146h105q-27 143 -27 254q0 211 116 321.5t341 110.5q156 0 358 -52l-41 -180q-147 55 -300.5 55.5t-218 -65.5t-64.5 -215q0 -96 26 -229h514v-146h-481q4 -20 20 -88l24 -95 q7 -28 19.5 -85t17.5 -91t9 -79t4 -82h492z" />
<glyph unicode="&#xa4;" horiz-adv-x="1175" d="M1049 166l-99 -92l-104 112q-113 -80 -258.5 -80t-257.5 80l-105 -112l-98 92l106 113q-88 127 -88 288q0 168 88 295l-106 111l98 92l105 -113q113 82 258 82t258 -82l104 113l99 -92l-107 -111q88 -127 88 -293q0 -164 -88 -290zM891 569q0 166 -82 251t-223.5 85 t-222 -86t-80.5 -249.5t80.5 -250t222 -86.5t223.5 85t82 251z" />
<glyph unicode="&#xa5;" horiz-adv-x="1173" d="M893 1501h203l-365 -780h256v-117h-305v-143h305v-117h-305v-344h-195v344h-307v117h307v143h-307v117h254l-358 780h207l266 -600q27 -61 35 -125h10q8 61 37 125z" />
<glyph unicode="&#xa6;" horiz-adv-x="561" d="M356 0h-151v616h151v-616zM356 885h-151v616h151v-616z" />
<glyph unicode="&#xa7;" horiz-adv-x="1173" d="M158 655q0 137 80.5 218t222.5 104q-178 61 -178 229q0 147 97 231.5t265 84.5q182 0 322 -35l-31 -162q-137 41 -281 41q-82 0 -135 -41t-53 -127q0 -55 58.5 -94t141.5 -68.5t164.5 -65.5t140 -104.5t58.5 -167.5q0 -137 -82 -219t-221 -102q180 -68 180 -230 q0 -147 -98 -231t-266 -84q-182 0 -322 35l31 162q137 -41 280 -41q82 0 135.5 41t53.5 127q0 55 -58.5 94t-140.5 68.5t-165 65.5t-141 104.5t-58 166.5zM852 671.5q0 98.5 -58.5 145.5t-183.5 78q-131 -2 -202.5 -57.5t-71.5 -155.5q0 -98 60.5 -145.5t181.5 -77.5 q131 2 202.5 58t71.5 154.5z" />
<glyph unicode="&#xa8;" horiz-adv-x="1024" d="M418 1339q0 -102 -99 -102q-100 0 -100 102q0 100 100 101q99 -1 99 -101zM805 1339q0 -102 -98 -102q-100 0 -101 102q0 100 101 101q98 -1 98 -101z" />
<glyph unicode="&#xa9;" horiz-adv-x="1542" d="M1444 750q0 -344 -174 -557t-497.5 -213t-499 213t-175.5 557q0 350 178.5 561t495.5 211q315 0 493.5 -210t178.5 -562zM1341 750q0 309 -149.5 491t-419.5 182q-285 0 -428 -180t-143 -493q0 -303 144 -487.5t427 -184.5q281 0 425 179.5t144 492.5zM1022 408 q-111 -43 -211 -43q-174 0 -252 88t-78 292q0 201 81 290t241 89q88 0 203 -32l-27 -111q-100 33 -174 33q-100 0 -146.5 -55.5t-46.5 -210.5q0 -162 48.5 -217.5t152.5 -55.5q76 0 184 43z" />
<glyph unicode="&#xaa;" horiz-adv-x="827" d="M676 764h-121l-6 43h-8q-156 -59 -246 -59q-199 0 -199 200q0 92 54.5 144.5t148.5 62.5l244 25v153q0 63 -78 64q-129 0 -285 -49l-30 122q176 51 329 52q197 0 197 -164v-594zM543 893v192l-271 -26q-37 -39 -36 -105q0 -57 25.5 -80.5t91 -23.5t190.5 43z" />
<glyph unicode="&#xab;" horiz-adv-x="1112" d="M555 84h-164l-295 473l295 473h164l-258 -473zM1018 84h-164l-297 473l297 473h164l-258 -473z" />
<glyph unicode="&#xac;" horiz-adv-x="1173" d="M1053 229h-174v387h-760v164h934v-551z" />
<glyph unicode="&#xad;" horiz-adv-x="512" d="M465 467h-418v154h418v-154z" />
<glyph unicode="&#xae;" horiz-adv-x="931" d="M829 1133q0 -174 -96 -281t-266 -107t-267.5 106.5t-97.5 281.5q0 178 97.5 283.5t265.5 105.5q166 0 265 -104.5t99 -284.5zM760 1133q-2 158 -77 241.5t-216 83.5q-147 0 -221 -85t-74 -240q0 -150 72.5 -238t222.5 -88q145 0 219 85t74 241zM618 1008v-52 q-12 -2 -30 -2q-39 0 -60 37l-51 101h-71v-136h-68v349h145q117 0 117 -103q0 -72 -61 -94l47 -90q8 -10 22 -10h10zM535 1200q0 53 -56 53h-73v-112h71q58 0 58 59z" />
<glyph unicode="&#xaf;" horiz-adv-x="1024" d="M766 1278h-506v160h506v-160z" />
<glyph unicode="&#xb0;" horiz-adv-x="800" d="M711 1228.5q0 -141.5 -84 -217t-228 -75.5q-145 0 -227 75.5t-82 215.5q0 141 82 218t225 77q147 0 230.5 -76t83.5 -217.5zM567 1229q0 82 -44 128t-126 46q-78 0 -121 -46t-43 -128q0 -80 42 -128t124 -48q80 0 124 47t44 129z" />
<glyph unicode="&#xb1;" d="M936 150v-150h-811v150h811zM453 223v355h-328v151h328v358h157v-358h326v-151h-326v-355h-157z" />
<glyph unicode="&#xb2;" horiz-adv-x="829" d="M702 1065h-567v117q250 199 326 291t76 190q0 172 -185 172q-94 0 -192 -35l-21 123q119 33 230 33q309 0 309 -283q0 -109 -66.5 -206t-283.5 -275v-6h368z" />
<glyph unicode="&#xb3;" horiz-adv-x="829" d="M676 1298q0 -117 -83 -185.5t-237 -68.5q-115 0 -254 35l23 121q137 -41 233 -41q176 0 177 146q0 74 -44.5 106.5t-138.5 32.5h-145v115h151q172 0 172 143q0 74 -38.5 106.5t-124.5 32.5q-98 0 -217 -35l-17 115q133 35 248 35q289 0 289 -240q0 -160 -148 -205v-8 q154 -37 154 -205z" />
<glyph unicode="&#xb4;" horiz-adv-x="1024" d="M498 1501h221l-254 -309h-162v18z" />
<glyph unicode="&#xb5;" horiz-adv-x="1232" d="M1026 0h-174v94h-12q-180 -106 -324 -106q-82 0 -131 28v-467h-182v1538h182v-819q0 -68 26.5 -94.5t108.5 -26.5q160 0 324 89v851h182v-1087z" />
<glyph unicode="&#xb6;" horiz-adv-x="1101" d="M942 -147h-141v1359q-61 16 -137 17v-1376h-142v598h-71q-195 0 -290 100t-95 344q0 248 128 363.5t384 115.5q203 0 364 -39v-1482z" />
<glyph unicode="&#xb7;" horiz-adv-x="557" d="M401 549q0 -55 -32.5 -87t-89.5 -32q-55 0 -89 32t-34 87t33.5 86t89 31t89 -30t33.5 -87z" />
<glyph unicode="&#xb8;" horiz-adv-x="1024" d="M707 -283q0 -168 -201 -168q-88 0 -189 21l23 113q92 -25 160 -25q43 0 59 15.5t16 52t-30.5 54t-138.5 44.5l49 201h100l-33 -131q106 -31 145.5 -69t39.5 -108z" />
<glyph unicode="&#xb9;" horiz-adv-x="829" d="M729 1065h-584v121h252v631l-235 -41l-10 110l245 49h131v-749h201v-121z" />
<glyph unicode="&#xba;" horiz-adv-x="899" d="M803 1135q0 -199 -95.5 -293t-259 -94t-258 93t-94.5 294q0 199 95.5 293t259.5 94q352 0 352 -387zM643 1135q0 160 -49 216t-143 56q-98 0 -146.5 -56.5t-48.5 -215.5q0 -154 47 -213.5t146 -59.5q100 0 147 58.5t47 214.5z" />
<glyph unicode="&#xbb;" horiz-adv-x="1112" d="M1018 557l-297 -473h-164l260 473l-260 473h164zM555 557l-297 -473h-162l258 473l-258 473h162z" />
<glyph unicode="&#xbc;" horiz-adv-x="1986" d="M729 631h-584v121h252v630l-235 -41l-10 111l245 49h131v-749h201v-121zM1323 1501l-537 -1501h-122l536 1501h123zM1898 182h-110v-182h-131v182h-395v144q143 199 210.5 314.5t100.5 229.5h139q-33 -117 -109.5 -247.5t-224.5 -329.5h283l33 246h94v-242h110v-115z" />
<glyph unicode="&#xbd;" horiz-adv-x="1986" d="M729 631h-584v121h252v630l-235 -41l-10 111l245 49h131v-749h201v-121zM1860 0h-568v117q250 199 326 291t76 190q0 172 -185 172q-94 0 -192 -35l-21 123q119 33 230 33q309 0 309 -283q0 -109 -66.5 -206t-283.5 -275v-6h368zM1323 1501l-537 -1501h-122l536 1501h123 z" />
<glyph unicode="&#xbe;" horiz-adv-x="1986" d="M1323 1501l-537 -1501h-122l536 1501h123zM676 864q0 -117 -83 -185.5t-237 -68.5q-115 0 -254 35l23 121q137 -41 233 -41q176 0 177 145q0 74 -44.5 107t-138.5 33h-145v114h151q172 0 172 144q0 74 -38.5 106.5t-124.5 32.5q-98 0 -217 -35l-17 115q133 35 248 35 q289 0 289 -240q0 -160 -148 -205v-8q154 -37 154 -205zM1898 182h-110v-182h-131v182h-395v144q143 199 210.5 314.5t100.5 229.5h139q-33 -117 -109.5 -247.5t-224.5 -329.5h283l33 246h94v-242h110v-115z" />
<glyph unicode="&#xbf;" horiz-adv-x="937" d="M102 -68q0 162 96.5 256.5t323.5 155.5l-35 279h152l76 -392q-250 -53 -339 -111.5t-89 -170.5q0 -111 64.5 -160t199.5 -49q137 0 254 37l24 -172q-135 -39 -278 -39q-449 -1 -449 366zM426 985q0 53 31.5 83t91.5 30q55 0 87 -30t32 -83q0 -55 -33 -85t-88 -30 q-53 0 -87 30t-34 85z" />
<glyph unicode="&#xc0;" horiz-adv-x="1292" d="M1245 0h-213l-131 436h-516l-133 -436h-207l467 1501h272zM428 600h432l-182 598q-25 80 -25 141h-16q0 -53 -27 -141zM729 1573h-162l-215 239h205l172 -221v-18z" />
<glyph unicode="&#xc1;" horiz-adv-x="1292" d="M1245 0h-213l-131 436h-516l-133 -436h-207l467 1501h272zM428 600h432l-182 598q-25 80 -25 141h-16q0 -53 -27 -141zM723 1573h-162v18l172 221h207z" />
<glyph unicode="&#xc2;" horiz-adv-x="1292" d="M1245 0h-213l-131 436h-516l-133 -436h-207l467 1501h272zM428 600h432l-182 598q-25 80 -25 141h-16q0 -53 -27 -141zM928 1573h-154l-135 178l-131 -178h-150v18l160 221h248l162 -221v-18z" />
<glyph unicode="&#xc3;" horiz-adv-x="1292" d="M1245 0h-213l-131 436h-516l-133 -436h-207l467 1501h272zM428 600h432l-182 598q-25 80 -25 141h-16q0 -53 -27 -141zM975 1782q-16 -121 -61.5 -167t-114.5 -46q-61 0 -113 28l-102 60q-35 18 -58 18q-31 0 -48 -22.5t-27 -79.5h-129q16 121 61 167t115 46 q61 0 112 -29l103 -59q31 -18 57 -19q29 0 46.5 21.5t29.5 81.5h129z" />
<glyph unicode="&#xc4;" horiz-adv-x="1292" d="M557 1667q0 -45 -25.5 -69.5t-72.5 -24.5q-96 0 -97 94q0 90 99 90q43 0 69.5 -22.5t26.5 -67.5zM936 1667q0 -94 -96 -94q-45 0 -72 24.5t-27 69.5q0 90 99 90q96 0 96 -90zM1245 0h-213l-131 436h-516l-133 -436h-207l467 1501h272zM428 600h432l-182 598 q-25 80 -25 141h-16q0 -53 -27 -141z" />
<glyph unicode="&#xc5;" horiz-adv-x="1292" d="M874 1722q0 -166 -227 -166q-225 0 -225 166t227 166q225 0 225 -166zM752 1722q0 88 -103 88q-104 0 -104 -88q0 -86 104 -86q103 0 103 86zM1245 0h-213l-131 436h-516l-133 -436h-207l467 1501h272zM428 600h432l-182 598q-25 80 -25 141h-16q0 -53 -27 -141z" />
<glyph unicode="&#xc6;" horiz-adv-x="1853" d="M1724 0h-831v672h-453l-194 -672h-203l451 1501h1210v-174h-606v-483h573v-172h-573v-498h608zM893 838v489h-258l-152 -489h410z" />
<glyph unicode="&#xc7;" horiz-adv-x="1208" d="M905 -283q0 -168 -200 -168q-88 0 -189 21l23 113q92 -25 159 -25q43 0 59.5 15.5t16.5 52t-30.5 54t-139.5 44.5l39 162q-262 27 -382 212t-120 556q0 401 148.5 584.5t441.5 183.5q152 0 381 -70l-47 -186q-201 76 -324 75q-94 0 -159.5 -23.5t-119.5 -86t-80 -181 t-26 -296.5q0 -186 27 -307t84 -182.5t122.5 -83t166.5 -21.5q119 0 342 96l45 -184q-227 -92 -393 -92h-9l-20 -86q106 -31 145 -69t39 -108z" />
<glyph unicode="&#xc8;" horiz-adv-x="1218" d="M1090 0h-869v1501h848v-174h-643v-483h612v-172h-612v-498h647zM729 1573h-162l-215 239h205l172 -221v-18z" />
<glyph unicode="&#xc9;" horiz-adv-x="1218" d="M662 1573h-162v18l172 221h207zM1090 0h-869v1501h848v-174h-643v-483h612v-172h-612v-498h647z" />
<glyph unicode="&#xca;" horiz-adv-x="1218" d="M1090 0h-869v1501h848v-174h-643v-483h612v-172h-612v-498h647zM920 1573h-154l-135 178l-131 -178h-150v18l160 221h248l162 -221v-18z" />
<glyph unicode="&#xcb;" horiz-adv-x="1218" d="M1090 0h-869v1501h848v-174h-643v-483h612v-172h-612v-498h647zM549 1667q0 -45 -25.5 -69.5t-72.5 -24.5q-96 0 -97 94q0 90 99 90q43 0 69.5 -22.5t26.5 -67.5zM928 1667q0 -94 -97 -94q-45 0 -71.5 24.5t-26.5 69.5q0 90 98 90q97 0 97 -90z" />
<glyph unicode="&#xcc;" horiz-adv-x="649" d="M428 1573h-162l-215 239h205l172 -221v-18zM428 0h-207v1501h207v-1501z" />
<glyph unicode="&#xcd;" horiz-adv-x="649" d="M383 1573h-162v18l172 221h207zM428 0h-207v1501h207v-1501z" />
<glyph unicode="&#xce;" horiz-adv-x="649" d="M600 1573h-149l-132 180l-126 -180h-144v18l154 224h239l158 -224v-18zM428 0h-207v1501h207v-1501z" />
<glyph unicode="&#xcf;" horiz-adv-x="649" d="M238 1667q0 -45 -26 -69.5t-71 -24.5q-92 0 -92 94q0 90 94 90q41 0 68 -23.5t27 -66.5zM604 1667q0 -94 -92 -94q-43 0 -69.5 24.5t-26.5 69.5q0 90 96 90q92 0 92 -90zM428 0h-207v1501h207v-1501z" />
<glyph unicode="&#xd0;" horiz-adv-x="1464" d="M1325 778q0 -778 -651 -778h-453v668h-176v168h176v665h449q150 0 263.5 -34.5t204.5 -114.5t139 -224.5t48 -349.5zM688 668h-262v-498h246q150 0 242 50t143 185.5t51 368.5q0 168 -29.5 281.5t-91 172t-134.5 81t-175 22.5h-252v-495h262v-168z" />
<glyph unicode="&#xd1;" horiz-adv-x="1505" d="M1282 0h-213l-586 1055q-41 74 -69 164h-13q8 -106 9 -164v-1055h-191v1501h227l574 -1030q39 -70 70 -158h12q-6 80 -6 158v1030h186v-1501zM1092 1782q-16 -121 -61.5 -167t-115.5 -46q-61 0 -112 28l-103 60q-33 18 -57 18q-31 0 -48 -22.5t-28 -79.5h-129 q16 121 61.5 167t114.5 46q61 0 113 -29l102 -59q31 -18 58 -19q29 0 46 21.5t30 81.5h129z" />
<glyph unicode="&#xd2;" horiz-adv-x="1470" d="M1331 750q0 -770 -596 -770q-289 0 -441.5 182t-152.5 583q0 776 594 777q596 0 596 -772zM1116 750q0 176 -24.5 294.5t-76.5 185t-119 93.5t-161 27q-129 0 -207.5 -49.5t-125 -183.5t-46.5 -367q0 -178 26 -298t78 -184.5t117.5 -90t157.5 -25.5t157.5 24.5t118 88 t79 184.5t26.5 301zM813 1573h-162l-215 239h205l172 -221v-18z" />
<glyph unicode="&#xd3;" horiz-adv-x="1470" d="M1331 750q0 -770 -596 -770q-289 0 -441.5 182t-152.5 583q0 776 594 777q596 0 596 -772zM1116 750q0 176 -24.5 294.5t-76.5 185t-119 93.5t-161 27q-129 0 -207.5 -49.5t-125 -183.5t-46.5 -367q0 -178 26 -298t78 -184.5t117.5 -90t157.5 -25.5t157.5 24.5t118 88 t79 184.5t26.5 301zM811 1573h-162v18l172 221h207z" />
<glyph unicode="&#xd4;" horiz-adv-x="1470" d="M1331 750q0 -770 -596 -770q-289 0 -441.5 182t-152.5 583q0 776 594 777q596 0 596 -772zM1116 750q0 176 -24.5 294.5t-76.5 185t-119 93.5t-161 27q-129 0 -207.5 -49.5t-125 -183.5t-46.5 -367q0 -178 26 -298t78 -184.5t117.5 -90t157.5 -25.5t157.5 24.5t118 88 t79 184.5t26.5 301zM1016 1573h-154l-135 178l-131 -178h-150v18l160 221h248l162 -221v-18z" />
<glyph unicode="&#xd5;" horiz-adv-x="1470" d="M1331 750q0 -770 -596 -770q-289 0 -441.5 182t-152.5 583q0 776 594 777q596 0 596 -772zM1116 750q0 176 -24.5 294.5t-76.5 185t-119 93.5t-161 27q-129 0 -207.5 -49.5t-125 -183.5t-46.5 -367q0 -178 26 -298t78 -184.5t117.5 -90t157.5 -25.5t157.5 24.5t118 88 t79 184.5t26.5 301zM1061 1782q-16 -121 -61.5 -167t-114.5 -46q-61 0 -113 28l-102 60q-35 18 -58 18q-31 0 -48 -22.5t-27 -79.5h-129q16 121 61 167t115 46q61 0 112 -29l103 -59q31 -18 57 -19q29 0 46.5 21.5t29.5 81.5h129z" />
<glyph unicode="&#xd6;" horiz-adv-x="1470" d="M639 1667q0 -45 -25.5 -69.5t-72.5 -24.5q-96 0 -97 94q0 90 99 90q43 0 69.5 -22.5t26.5 -67.5zM1018 1667q0 -94 -96 -94q-45 0 -72 24.5t-27 69.5q0 90 99 90q96 0 96 -90zM1331 750q0 -770 -596 -770q-289 0 -441.5 182t-152.5 583q0 776 594 777q596 0 596 -772z M1116 750q0 176 -24.5 294.5t-76.5 185t-119 93.5t-161 27q-129 0 -207.5 -49.5t-125 -183.5t-46.5 -367q0 -178 26 -298t78 -184.5t117.5 -90t157.5 -25.5t157.5 24.5t118 88t79 184.5t26.5 301z" />
<glyph unicode="&#xd7;" d="M944 246l-110 -111l-304 303l-301 -303l-110 111l301 303l-299 299l108 113l301 -302l301 302l111 -113l-301 -299z" />
<glyph unicode="&#xd8;" horiz-adv-x="1470" d="M1331 750q0 -770 -596 -770q-233 0 -370 110l-113 -182h-90l147 235q-168 186 -168 602q0 776 594 777q229 0 369 -113l117 184h88l-150 -237q172 -190 172 -606zM1116 750q0 283 -69 426l-578 -920q86 -104 266 -104q92 0 157.5 24.5t118 88t79 184.5t26.5 301zM356 750 q0 -287 68 -424l577 919q-86 104 -266 105q-129 0 -207.5 -49.5t-125 -183.5t-46.5 -367z" />
<glyph unicode="&#xd9;" horiz-adv-x="1486" d="M1274 510q0 -276 -136.5 -403t-398.5 -127t-395 120.5t-133 409.5v991h205v-991q0 -193 70.5 -272.5t254.5 -79.5q178 0 256 80.5t78 271.5v991h199v-991zM840 1573h-162l-215 239h205l172 -221v-18z" />
<glyph unicode="&#xda;" horiz-adv-x="1486" d="M1274 510q0 -276 -136.5 -403t-398.5 -127t-395 120.5t-133 409.5v991h205v-991q0 -193 70.5 -272.5t254.5 -79.5q178 0 256 80.5t78 271.5v991h199v-991zM807 1573h-162v18l172 221h207z" />
<glyph unicode="&#xdb;" horiz-adv-x="1486" d="M1274 510q0 -276 -136.5 -403t-398.5 -127t-395 120.5t-133 409.5v991h205v-991q0 -193 70.5 -272.5t254.5 -79.5q178 0 256 80.5t78 271.5v991h199v-991zM1032 1573h-153l-136 178l-131 -178h-149v18l160 221h247l162 -221v-18z" />
<glyph unicode="&#xdc;" horiz-adv-x="1486" d="M662 1667q0 -45 -26 -69.5t-73 -24.5q-96 0 -96 94q0 90 98 90q43 0 70 -22.5t27 -67.5zM1040 1667q0 -94 -96 -94q-45 0 -71.5 24.5t-26.5 69.5q0 90 98 90q96 0 96 -90zM1274 510q0 -276 -136.5 -403t-398.5 -127t-395 120.5t-133 409.5v991h205v-991 q0 -193 70.5 -272.5t254.5 -79.5q178 0 256 80.5t78 271.5v991h199v-991z" />
<glyph unicode="&#xdd;" horiz-adv-x="1103" d="M1077 1501l-424 -905v-596h-204v598l-424 903h215l268 -573q37 -82 41 -137h12q8 59 43 137l262 573h211zM616 1573h-161v18l172 221h207z" />
<glyph unicode="&#xde;" horiz-adv-x="1286" d="M1165 766q0 -244 -145.5 -356.5t-382.5 -112.5h-213v-297h-203v1501h203v-278h238q246 0 374.5 -108.5t128.5 -348.5zM952 766q0 164 -76.5 226.5t-209.5 62.5h-242v-588h221q143 0 225 63.5t82 235.5z" />
<glyph unicode="&#xdf;" horiz-adv-x="1173" d="M1083 279q0 -139 -82.5 -219t-228.5 -80q-104 0 -270 51l35 159q156 -55 225 -55q66 0 104.5 36t38.5 105q0 49 -40 94.5t-97 82.5l-115 76q-57 40 -97 100.5t-40 132.5q0 74 46 147.5t100.5 124.5t100.5 118t46 124q0 84 -45 121t-166 37q-129 0 -178 -45.5t-49 -167.5 v-1221h-183v1212q0 190 92.5 285.5t323.5 95.5q389 0 389 -301q0 -76 -46 -152.5t-102.5 -127.5t-102.5 -114.5t-46 -117.5q0 -47 40 -90t96.5 -81t114 -81t97 -107t39.5 -142z" />
<glyph unicode="&#xe0;" horiz-adv-x="1118" d="M913 0h-155l-10 80h-15q-205 -100 -330 -100q-279 0 -278 286q0 266 285 297l329 37v250q0 94 -112 94q-156 0 -396 -74l-36 160q266 78 454 78q137 0 200.5 -52t63.5 -184v-872zM739 188v285l-381 -39q-53 -59 -53 -153q0 -86 38 -123t130 -37q88 -1 266 67zM711 1192 h-162l-254 309h221l195 -291v-18z" />
<glyph unicode="&#xe1;" horiz-adv-x="1118" d="M913 0h-155l-10 80h-15q-205 -100 -330 -100q-279 0 -278 286q0 266 285 297l329 37v250q0 94 -112 94q-156 0 -396 -74l-36 160q266 78 454 78q137 0 200.5 -52t63.5 -184v-872zM739 188v285l-381 -39q-53 -59 -53 -153q0 -86 38 -123t130 -37q88 -1 266 67zM662 1501 h221l-254 -309h-162v18z" />
<glyph unicode="&#xe2;" horiz-adv-x="1118" d="M913 0h-155l-10 80h-15q-205 -100 -330 -100q-279 0 -278 286q0 266 285 297l329 37v250q0 94 -112 94q-156 0 -396 -74l-36 160q266 78 454 78q137 0 200.5 -52t63.5 -184v-872zM739 188v285l-381 -39q-53 -59 -53 -153q0 -86 38 -123t130 -37q88 -1 266 67zM866 1192 h-161l-156 240l-154 -240h-157v18l184 291h260l184 -291v-18z" />
<glyph unicode="&#xe3;" horiz-adv-x="1118" d="M913 0h-155l-10 80h-15q-205 -100 -330 -100q-279 0 -278 286q0 266 285 297l329 37v250q0 94 -112 94q-156 0 -396 -74l-36 160q266 78 454 78q137 0 200.5 -52t63.5 -184v-872zM739 188v285l-381 -39q-53 -59 -53 -153q0 -86 38 -123t130 -37q88 -1 266 67zM905 1444 q-20 -154 -68.5 -207t-123.5 -53q-68 0 -123 37l-115 75q-37 23 -65 23q-70 0 -84 -127h-140q20 154 68.5 207t124.5 53q68 0 123 -37l114 -76q41 -23 66 -22q37 0 56.5 26.5t27.5 100.5h139z" />
<glyph unicode="&#xe4;" horiz-adv-x="1118" d="M913 0h-155l-10 80h-15q-205 -100 -330 -100q-279 0 -278 286q0 266 285 297l329 37v250q0 94 -112 94q-156 0 -396 -74l-36 160q266 78 454 78q137 0 200.5 -52t63.5 -184v-872zM739 188v285l-381 -39q-53 -59 -53 -153q0 -86 38 -123t130 -37q88 -1 266 67zM467 1339 q0 -102 -98 -102q-100 0 -101 102q0 100 101 101q98 -1 98 -101zM854 1339q0 -102 -98 -102q-100 0 -101 102q0 100 101 101q98 -1 98 -101z" />
<glyph unicode="&#xe5;" horiz-adv-x="1118" d="M913 0h-155l-10 80h-15q-205 -100 -330 -100q-279 0 -278 286q0 266 285 297l329 37v250q0 94 -112 94q-156 0 -396 -74l-36 160q266 78 454 78q137 0 200.5 -52t63.5 -184v-872zM739 188v285l-381 -39q-53 -59 -53 -153q0 -86 38 -123t130 -37q88 -1 266 67zM805 1370 q0 -184 -236 -184q-238 0 -237.5 184t237.5 184q236 0 236 -184zM676 1370q0 100 -107 100q-109 0 -108.5 -100t108.5 -100q107 0 107 100z" />
<glyph unicode="&#xe6;" horiz-adv-x="1679" d="M1552 690q0 -66 -6 -151l-631 -54q0 -201 64.5 -271.5t198.5 -70.5q106 0 317 68l33 -162q-242 -70 -348 -69q-233 0 -340 131q-281 -131 -439 -131q-276 0 -276 286q0 135 73.5 208t192.5 85l344 33v258q0 49 -24.5 71.5t-83.5 22.5q-160 0 -396 -74l-36 160 q272 78 454 78q98 0 150.5 -34t66.5 -118q94 152 297 152q180 0 284.5 -102.5t104.5 -315.5zM1372 721q0 250 -211 250q-119 0 -181 -85t-62 -284l452 45q2 25 2 74zM791 201q-51 96 -52 248v26l-379 -37q-55 -57 -55 -159q0 -86 38 -123t130 -37q125 0 318 82z" />
<glyph unicode="&#xe7;" horiz-adv-x="950" d="M729 -283q0 -168 -201 -168q-88 0 -188 21l22 113q92 -25 160 -25q43 0 59.5 15.5t16.5 52t-30.5 54t-139.5 44.5l39 164q-338 49 -338 557q0 563 430 563q113 0 275 -37l-35 -168q-131 41 -221 41q-139 0 -196.5 -89t-57.5 -308q0 -229 59 -316.5t192 -87.5q78 0 244 66 l35 -168q-178 -57 -289 -61l-20 -86q106 -31 145 -69t39 -108z" />
<glyph unicode="&#xe8;" horiz-adv-x="1087" d="M934 51q-242 -72 -348 -71q-233 0 -345 133t-112 405q0 590 442 590q184 0 285.5 -104.5t101.5 -313.5l-6 -176q-410 -8 -630 -14q0 -203 61 -280t203 -77q94 0 315 70zM778 631q2 37 2 88q0 254 -213 254q-119 0 -179 -79t-64 -271zM641 1192h-162l-254 309h221 l195 -291v-18z" />
<glyph unicode="&#xe9;" horiz-adv-x="1087" d="M934 51q-242 -72 -348 -71q-233 0 -345 133t-112 405q0 590 442 590q184 0 285.5 -104.5t101.5 -313.5l-6 -176q-410 -8 -630 -14q0 -203 61 -280t203 -77q94 0 315 70zM778 631q2 37 2 88q0 254 -213 254q-119 0 -179 -79t-64 -271zM676 1501h221l-254 -309h-162v18z " />
<glyph unicode="&#xea;" horiz-adv-x="1087" d="M934 51q-242 -72 -348 -71q-233 0 -345 133t-112 405q0 590 442 590q184 0 285.5 -104.5t101.5 -313.5l-6 -176q-410 -8 -630 -14q0 -203 61 -280t203 -77q94 0 315 70zM778 631q2 37 2 88q0 254 -213 254q-119 0 -179 -79t-64 -271zM879 1192h-162l-156 240l-153 -240 h-158v18l184 291h260l185 -291v-18z" />
<glyph unicode="&#xeb;" horiz-adv-x="1087" d="M934 51q-242 -72 -348 -71q-233 0 -345 133t-112 405q0 590 442 590q184 0 285.5 -104.5t101.5 -313.5l-6 -176q-410 -8 -630 -14q0 -203 61 -280t203 -77q94 0 315 70zM778 631q2 37 2 88q0 254 -213 254q-119 0 -179 -79t-64 -271zM467 1339q0 -102 -98 -102 q-100 0 -101 102q0 100 101 101q98 -1 98 -101zM854 1339q0 -102 -98 -102q-100 0 -101 102q0 100 101 101q98 -1 98 -101z" />
<glyph unicode="&#xec;" horiz-adv-x="591" d="M387 0h-182v1087h182v-1087zM387 1192h-162l-254 309h222l194 -291v-18z" />
<glyph unicode="&#xed;" horiz-adv-x="591" d="M399 1501h222l-254 -309h-162v18zM387 0h-182v1087h182v-1087z" />
<glyph unicode="&#xee;" horiz-adv-x="591" d="M387 0h-182v1087h182v-1087zM578 1192h-146l-137 240l-137 -240h-142v18l166 291h232l164 -291v-18z" />
<glyph unicode="&#xef;" horiz-adv-x="591" d="M387 0h-182v1087h182v-1087zM219 1339q0 -102 -92 -102q-94 0 -94 102q0 100 94 101q92 -1 92 -101zM561 1339q0 -102 -94 -102t-94 102q0 100 94 101q43 0 68.5 -26t25.5 -75z" />
<glyph unicode="&#xf0;" horiz-adv-x="1169" d="M1040 578q0 -301 -112.5 -449.5t-347.5 -148.5q-217 0 -334 140t-117 402q0 526 461 527q82 0 162 -25q-55 119 -156 258l-150 -104l-63 84l152 106l-115 148l168 77l46 -59l48 -61l143 100l64 -84l-146 -103q158 -223 227.5 -413t69.5 -395zM848 575q0 150 -41 291 q-98 31 -207 31q-139 0 -207.5 -83t-68.5 -290q0 -205 62.5 -299t195.5 -94q147 0 206.5 102t59.5 342z" />
<glyph unicode="&#xf1;" horiz-adv-x="1236" d="M1036 0h-182v817q0 68 -26.5 94.5t-108.5 26.5q-158 0 -332 -86v-852h-182v1087h182v-94h14q145 70 221 92.5t162 22.5q123 0 187.5 -55.5t64.5 -186.5v-866zM979 1444q-20 -154 -68.5 -207t-124.5 -53q-68 0 -122 37l-115 75q-37 23 -66 23q-70 0 -84 -127h-139 q20 154 68.5 207t124.5 53q68 0 122 -37l115 -76q41 -23 66 -22q37 0 56 26.5t28 100.5h139z" />
<glyph unicode="&#xf2;" horiz-adv-x="1187" d="M1059 543q0 -563 -465 -563t-465 563q0 565 467 565q463 0 463 -565zM864 543q0 242 -67.5 327.5t-202.5 85.5q-137 0 -203.5 -88t-66.5 -325q0 -233 64.5 -322.5t205.5 -89.5q139 0 204.5 88t65.5 324zM674 1192h-162l-254 309h221l195 -291v-18z" />
<glyph unicode="&#xf3;" horiz-adv-x="1187" d="M1059 543q0 -563 -465 -563t-465 563q0 565 467 565q463 0 463 -565zM864 543q0 242 -67.5 327.5t-202.5 85.5q-137 0 -203.5 -88t-66.5 -325q0 -233 64.5 -322.5t205.5 -89.5q139 0 204.5 88t65.5 324zM705 1501h221l-254 -309h-162v18z" />
<glyph unicode="&#xf4;" horiz-adv-x="1187" d="M1059 543q0 -563 -465 -563t-465 563q0 565 467 565q463 0 463 -565zM864 543q0 242 -67.5 327.5t-202.5 85.5q-137 0 -203.5 -88t-66.5 -325q0 -233 64.5 -322.5t205.5 -89.5q139 0 204.5 88t65.5 324zM907 1192h-162l-155 240l-154 -240h-157v18l184 291h260l184 -291 v-18z" />
<glyph unicode="&#xf5;" horiz-adv-x="1187" d="M1059 543q0 -563 -465 -563t-465 563q0 565 467 565q463 0 463 -565zM864 543q0 242 -67.5 327.5t-202.5 85.5q-137 0 -203.5 -88t-66.5 -325q0 -233 64.5 -322.5t205.5 -89.5q139 0 204.5 88t65.5 324zM956 1444q-20 -154 -68 -207t-124 -53q-68 0 -123 37l-115 75 q-37 23 -65 23q-70 0 -84 -127h-139q20 154 68 207t124 53q68 0 123 -37l115 -76q41 -23 65 -22q37 0 56.5 26.5t27.5 100.5h139z" />
<glyph unicode="&#xf6;" horiz-adv-x="1187" d="M1059 543q0 -563 -465 -563t-465 563q0 565 467 565q463 0 463 -565zM864 543q0 242 -67.5 327.5t-202.5 85.5q-137 0 -203.5 -88t-66.5 -325q0 -233 64.5 -322.5t205.5 -89.5q139 0 204.5 88t65.5 324zM498 1339q0 -102 -99 -102q-100 0 -100 102q0 100 100 101 q99 -1 99 -101zM885 1339q0 -102 -99 -102q-100 0 -100 102q0 100 100 101q99 -1 99 -101z" />
<glyph unicode="&#xf7;" d="M795 590v-84h-529v84h529zM655 152q0 -55 -33.5 -87t-91.5 -32q-55 0 -88.5 31.5t-33.5 87t33.5 87t89 31.5t90 -30.5t34.5 -87.5zM655 942q0 -55 -33.5 -87t-91.5 -32q-55 0 -88.5 32t-33.5 87t33.5 86t89 31t90 -31t34.5 -86z" />
<glyph unicode="&#xf8;" horiz-adv-x="1187" d="M1059 543q0 -563 -465 -563q-152 0 -256 61l-111 -188h-82l136 229q-152 135 -152 461q0 565 467 565q150 0 252 -61l113 190h79l-135 -231q154 -137 154 -463zM864 543q0 203 -53 303l-391 -664q59 -51 174 -51q139 0 204.5 88t65.5 324zM324 543q0 -207 51 -301 l389 663q-59 51 -170 51q-137 0 -203.5 -87.5t-66.5 -325.5z" />
<glyph unicode="&#xf9;" horiz-adv-x="1230" d="M1026 0h-174v94h-12q-231 -115 -383 -114q-254 0 -254 243v864h182v-819q0 -68 26.5 -94.5t108.5 -26.5q160 0 324 89v851h182v-1087zM711 1192h-162l-254 309h221l195 -291v-18z" />
<glyph unicode="&#xfa;" horiz-adv-x="1230" d="M1026 0h-174v94h-12q-231 -115 -383 -114q-254 0 -254 243v864h182v-819q0 -68 26.5 -94.5t108.5 -26.5q160 0 324 89v851h182v-1087zM711 1501h221l-254 -309h-162v18z" />
<glyph unicode="&#xfb;" horiz-adv-x="1230" d="M1026 0h-174v94h-12q-231 -115 -383 -114q-254 0 -254 243v864h182v-819q0 -68 26.5 -94.5t108.5 -26.5q160 0 324 89v851h182v-1087zM934 1192h-162l-156 240l-153 -240h-158v18l184 291h261l184 -291v-18z" />
<glyph unicode="&#xfc;" horiz-adv-x="1230" d="M1026 0h-174v94h-12q-231 -115 -383 -114q-254 0 -254 243v864h182v-819q0 -68 26.5 -94.5t108.5 -26.5q160 0 324 89v851h182v-1087zM524 1339q0 -102 -98 -102q-100 0 -100 102q0 100 100 101q98 -1 98 -101zM911 1339q0 -102 -98 -102q-100 0 -100 102q0 100 100 101 q98 -1 98 -101z" />
<glyph unicode="&#xfd;" d="M985 1087l-307 -1099q-68 -242 -162 -350.5t-233 -108.5q-74 0 -234 53l47 154q117 -47 201 -47q49 0 85 34.5t69 133.5l47 143h-56l-368 1087h188l266 -788q27 -84 27 -133h12q0 49 23 131l215 790h180zM637 1501h221l-254 -309h-162v18z" />
<glyph unicode="&#xfe;" horiz-adv-x="1212" d="M1083 555q0 -295 -118.5 -435t-307.5 -140q-141 0 -270 43v-474h-182v2018l182 26v-589h12q186 104 310 104q186 0 280 -127t94 -426zM889 559q0 221 -56.5 305t-170.5 84q-96 0 -275 -92v-690q129 -33 229 -33q129 0 201 92t72 334z" />
<glyph unicode="&#xff;" d="M985 1087l-307 -1099q-68 -242 -162 -350.5t-233 -108.5q-74 0 -234 53l47 154q117 -47 201 -47q49 0 85 34.5t69 133.5l47 143h-56l-368 1087h188l266 -788q27 -84 27 -133h12q0 49 23 131l215 790h180zM449 1339q0 -102 -99 -102q-100 0 -100 102q0 100 100 101 q99 -1 99 -101zM836 1339q0 -102 -99 -102q-100 0 -100 102q0 100 100 101q99 -1 99 -101z" />
<glyph unicode="&#x152;" horiz-adv-x="2099" d="M1970 0h-842v215h-6q-113 -236 -399.5 -235.5t-434 181.5t-147.5 584q0 776 582 777q293 0 399 -234h6v213h822v-174h-643v-483h612v-172h-612v-498h645zM358 750q0 -178 26 -298t77 -184.5t116.5 -90t157.5 -25.5t155.5 24.5t117 87t79 183t25.5 303.5q0 342 -91 470 t-286 128q-129 0 -207.5 -48.5t-124 -182.5t-45.5 -367z" />
<glyph unicode="&#x153;" horiz-adv-x="1812" d="M1659 51q-240 -72 -348 -71q-141 0 -226.5 51t-136.5 164q-94 -215 -354 -215q-465 0 -465 563q0 565 467 565q268 0 362 -227q90 227 338 227q186 0 286.5 -106.5t100.5 -311.5q0 -72 -6 -174q-420 -10 -630 -14q0 -205 61 -282t203 -77q96 0 315 70zM864 543 q0 242 -68.5 327.5t-201.5 85.5q-137 0 -203.5 -88t-66.5 -325q0 -233 66.5 -322.5t203.5 -89.5q141 0 205.5 88t64.5 324zM1503 631q2 39 2 88q0 254 -213 254q-117 0 -178 -80t-65 -270z" />
<glyph unicode="&#x178;" horiz-adv-x="1103" d="M1077 1501l-424 -905v-596h-204v598l-424 903h215l268 -573q37 -82 41 -137h12q8 59 43 137l262 573h211zM465 1667q0 -45 -25.5 -69.5t-72.5 -24.5q-96 0 -97 94q0 90 99 90q43 0 69.5 -22.5t26.5 -67.5zM844 1667q0 -94 -96 -94q-45 0 -72 24.5t-27 69.5q0 90 99 90 q96 0 96 -90z" />
<glyph unicode="&#x2c6;" horiz-adv-x="1024" d="M825 1192h-161l-156 240l-154 -240h-157v18l184 291h260l184 -291v-18z" />
<glyph unicode="&#x2dc;" horiz-adv-x="1024" d="M870 1444q-20 -154 -68 -207t-124 -53q-68 0 -123 37l-115 75q-37 23 -65 23q-70 0 -84 -127h-139q20 154 68 207t124 53q68 0 123 -37l115 -76q41 -23 65 -22q37 0 56.5 26.5t27.5 100.5h139z" />
<glyph unicode="&#x2000;" horiz-adv-x="976" />
<glyph unicode="&#x2001;" horiz-adv-x="1955" />
<glyph unicode="&#x2002;" horiz-adv-x="976" />
<glyph unicode="&#x2003;" horiz-adv-x="1955" />
<glyph unicode="&#x2004;" horiz-adv-x="651" />
<glyph unicode="&#x2005;" horiz-adv-x="487" />
<glyph unicode="&#x2006;" horiz-adv-x="325" />
<glyph unicode="&#x2007;" horiz-adv-x="325" />
<glyph unicode="&#x2008;" horiz-adv-x="243" />
<glyph unicode="&#x2009;" horiz-adv-x="391" />
<glyph unicode="&#x200a;" horiz-adv-x="108" />
<glyph unicode="&#x2010;" horiz-adv-x="512" d="M465 467h-418v154h418v-154z" />
<glyph unicode="&#x2011;" horiz-adv-x="512" d="M465 467h-418v154h418v-154z" />
<glyph unicode="&#x2012;" horiz-adv-x="512" d="M465 467h-418v154h418v-154z" />
<glyph unicode="&#x2013;" horiz-adv-x="1024" d="M958 467h-892v154h892v-154z" />
<glyph unicode="&#x2014;" horiz-adv-x="2048" d="M1982 467h-1916v154h1916v-154z" />
<glyph unicode="&#x2018;" horiz-adv-x="475" d="M78 1169q0 109 50 187t179 151l90 -112q-100 -51 -127.5 -88t-27.5 -101v-18h30q37 0 59.5 -22.5t22.5 -63.5q0 -49 -34.5 -79t-92.5 -30q-68 0 -108.5 44t-40.5 132z" />
<glyph unicode="&#x2019;" horiz-adv-x="475" d="M397 1331q0 -109 -50 -186.5t-179 -151.5l-90 113q100 51 127.5 88t27.5 100v19h-30q-37 0 -59.5 22.5t-22.5 63.5q0 49 34.5 78.5t92.5 29.5q68 0 108.5 -44t40.5 -132z" />
<glyph unicode="&#x201a;" horiz-adv-x="475" d="M397 43q0 -109 -50 -186.5t-179 -151.5l-90 113q100 51 127.5 88t27.5 100v19h-30q-37 0 -59.5 22.5t-22.5 63.5q0 49 34.5 78.5t92.5 29.5q68 0 108.5 -44t40.5 -132z" />
<glyph unicode="&#x201c;" horiz-adv-x="831" d="M434 1169q0 109 50.5 187t179.5 151l90 -112q-100 -51 -128 -88t-28 -101v-18h31q37 0 59.5 -22.5t22.5 -63.5q0 -49 -35 -79t-92 -30q-68 0 -109 44t-41 132zM78 1169q0 109 50 187t179 151l90 -112q-100 -51 -127.5 -88t-27.5 -101v-18h30q37 0 59.5 -22.5t22.5 -63.5 q0 -49 -34.5 -79t-92.5 -30q-68 0 -108.5 44t-40.5 132z" />
<glyph unicode="&#x201d;" horiz-adv-x="831" d="M754 1331q0 -109 -50.5 -186.5t-179.5 -151.5l-90 113q100 51 128 88t28 100v19h-31q-37 0 -59.5 22.5t-22.5 63.5q0 49 35 78.5t92 29.5q68 0 109 -44t41 -132zM397 1331q0 -109 -50 -186.5t-179 -151.5l-90 113q100 51 127.5 88t27.5 100v19h-30q-37 0 -59.5 22.5 t-22.5 63.5q0 49 34.5 78.5t92.5 29.5q68 0 108.5 -44t40.5 -132z" />
<glyph unicode="&#x201e;" horiz-adv-x="831" d="M397 43q0 -109 -50 -186.5t-179 -151.5l-90 113q100 51 127.5 88t27.5 100v19h-30q-37 0 -59.5 22.5t-22.5 63.5q0 49 34.5 78.5t92.5 29.5q68 0 108.5 -44t40.5 -132zM754 43q0 -109 -50.5 -186.5t-179.5 -151.5l-90 113q100 51 128 88t28 100v19h-31q-37 0 -59.5 22.5 t-22.5 63.5q0 49 35 78.5t92 29.5q68 0 109 -44t41 -132z" />
<glyph unicode="&#x2022;" horiz-adv-x="1024" d="M772 283h-520v518h520v-518z" />
<glyph unicode="&#x2026;" horiz-adv-x="1443" d="M846 104q0 -55 -34 -86.5t-91 -31.5q-55 0 -90 31.5t-35 87t34 87t91 31.5q55 0 90 -31t35 -88zM1290 104q0 -55 -33.5 -86.5t-91.5 -31.5q-55 0 -90 31.5t-35 87t34 87t91 31.5q55 0 90 -31t35 -88zM403 104q0 -55 -33.5 -86.5t-90.5 -31.5q-55 0 -90 31.5t-35 87 t33.5 87t91.5 31.5q55 0 89.5 -31t34.5 -88z" />
<glyph unicode="&#x202f;" horiz-adv-x="391" />
<glyph unicode="&#x2039;" horiz-adv-x="653" d="M557 84h-164l-295 473l295 473h164l-258 -473z" />
<glyph unicode="&#x203a;" horiz-adv-x="653" d="M557 557l-297 -473h-162l256 473l-256 473h162z" />
<glyph unicode="&#x205f;" horiz-adv-x="487" />
<glyph unicode="&#x20ac;" horiz-adv-x="1173" d="M1075 53q-178 -74 -323 -73q-256 0 -373 122.5t-143 411.5h-119v121h112q-2 37 -2 119q0 94 2 137h-112v119h123q33 270 151.5 391t347.5 121q152 0 328 -60l-53 -172q-150 61 -269 62q-139 0 -212.5 -73t-96.5 -269h553l-14 -119h-549q-2 -43 -2 -137q0 -82 2 -119h563 l-14 -121h-543q12 -115 36 -187.5t68 -111.5t96 -52t132 -13q111 0 272 75z" />
<glyph unicode="&#x2122;" horiz-adv-x="1728" d="M647 1386h-223v-622h-123v622h-217v115h563v-115zM1593 764h-118l-29 491q-2 27 -2 91h-10q-8 -49 -25 -91l-182 -491h-125l-187 491q-16 39 -20 91h-10q0 -63 -2 -91l-31 -491h-115l54 737h147l203 -524q18 -51 22 -94h11q4 43 22 94l195 524h151z" />
<glyph unicode="&#xe000;" horiz-adv-x="1085" d="M0 1085h1085v-1085h-1085v1085z" />
<glyph unicode="&#xfb01;" horiz-adv-x="1320" d="M1116 0h-182v928h-467v-928h-182v928h-154v159h154v136q0 178 88 274t254 96q59 0 102 -12l-12 -166q-41 10 -92 10q-82 0 -120 -35.5t-38 -123.5v-179h649v-1087zM1141 1421.5q0 -53.5 -31 -83t-84 -29.5t-85 29.5t-32 82.5q0 51 32 81t85 30q51 0 83 -28.5t32 -82z" />
<glyph unicode="&#xfb02;" horiz-adv-x="1351" d="M1147 0h-182v1413q-119 25 -244 25q-141 0 -197.5 -45t-56.5 -142v-164h260v-159h-260v-928h-182v928h-154v159h154v136q0 199 108.5 284.5t327.5 85.5q184 0 426 -37v-1556z" />
<glyph unicode="&#xfb03;" horiz-adv-x="2242" d="M2038 0h-182v1087h182v-1087zM2063 1421.5q0 -53.5 -31 -83t-84 -29.5t-85 29.5t-32 82.5q0 51 32 81t85 30q51 0 83 -28.5t32 -82zM1564 1581l-12 -166q-51 10 -102 10q-82 0 -120 -35.5t-38 -123.5v-179h274v-159h-274v-928h-182v928h-154v159h154v136q0 178 88 274 t254 96q65 0 112 -12zM739 1581l-12 -166q-51 10 -102 10q-82 0 -120 -35.5t-38 -123.5v-179h274v-159h-274v-928h-182v928h-154v159h154v136q0 178 88 274t254 96q65 0 112 -12z" />
<glyph unicode="&#xfb04;" horiz-adv-x="2242" d="M2038 0h-182v1567l182 26v-1593zM1564 1581l-12 -166q-51 10 -102 10q-82 0 -120 -35.5t-38 -123.5v-179h274v-159h-274v-928h-182v928h-154v159h154v136q0 178 88 274t254 96q65 0 112 -12zM739 1581l-12 -166q-51 10 -102 10q-82 0 -120 -35.5t-38 -123.5v-179h274 v-159h-274v-928h-182v928h-154v159h154v136q0 178 88 274t254 96q65 0 112 -12z" />
</font>
</defs>
</svg>
